90云盘

查看: 6181|回复: 205

[欧美演唱会] Taylor Swift - Speak Now World Tour Live(泰勒·斯威夫特爱的告白世界巡回演唱会)[8G/17G][2011][欧美][流行]

  [复制链接]

90

主题

90

帖子

3457

积分

论坛元老

Rank: 8Rank: 8

积分
3457
发表于 2019-6-28 18:30:55 | 显示全部楼层 |阅读模式
1.jpg
内容介绍

4座葛莱美奖的国民小公主 Taylor Swif 自2011年2月展开以百老汇舞台设计风格的「Speak Now World Tour / 爱的告白世界巡回演唱会」,演唱会席卷美洲、欧洲与亚洲三大市场,在17个国家的大型体育场开唱 98 场,满座率直逼百分百。加演场次已经排到2012年春季,在2011年11月以纽约麦迪逊花园广场两场爆满演唱会结束美国场次演出的同时,泰勒特地以首张现场演唱精选影音大碟【Speak Now World Tour – Live 】让所有看过演唱会的乐迷以及买不到票的乐迷,还有她还没造访开唱的世界各个角落的乐迷共同分享这个令人心动、感动与悸动的演唱会时光!

泰勒历年专辑的全球销量超过 2000 万张, 其中包括2010年底所发行的专辑「Speak Now」在过去一年内所卖出的500万张, 「Speak Now 」专辑也是2011年全美最畅销的专辑。泰勒在2011年的全美音乐奖上勇夺年度艺人等3项大奖,连续在2010年与2011年赢得美国娱乐周刊的「年度娱乐界风云人物」殊荣,同时也是全美告示牌杂志2011年的年度风云女艺人。根据美国演唱会杂志 Pollsatr 的官方统计, 这场一票难求的「Speak Now World Tour / 爱的告白世界巡回演唱会」光是2011年上半年的票房就高达4290万美金,跻身十大热门演唱会之列!

演出曲目

01. Sparks Fly / 火花飞舞
02. Mine / 我的最爱
03. The Story Of Us / 我们的故事
04. Our Song / 我们的歌
05. Mean / 太刻薄
06. Back To December, Apologize, You're Not Sorry / 重回十二月、抱歉、道歉于事无补
07. Better Than Revenge / 复仇女王
08. Speak Now / 爱的告白
09. Fearless, I'm Yours, Hey, Soul Sister / 无惧的爱、我属于你、嘿 红粉知己
10. Last Kiss / 最后一吻
11. Drops Of Jupiter / 木星之泪
12. You Belong With Me / 你是我的
13. Dean John / 亲爱的约翰
14. Enchanted / 爱情魔力
15. Haunted / 心神不宁
16. Long Live / 直到永远
17. Fifteen / 十五岁
18. Love Story / 爱的故事


General
ID                             : 1 (0x1)
Complete name                  : Taylor Swift - Speak Now World Tour Live(泰勒·斯威夫特爱的告白世界巡回演唱会)2011.LPCM DD5.1.m2ts
Format                         : BDAV
Format/Info                    : Blu-ray Video
File size                      : 17.3 GiB
Duration                       : 2h 9mn
Overall bit rate mode          : Variable
Overall bit rate               : 19.2 Mbps
Maximum Overall bit rate       : 35.5 Mbps

Video
ID                             : 4113 (0x1011)
Menu ID                        : 1 (0x1)
Format                         : AVC
Format/Info                    : Advanced Video Codec
Format profile                 : High@L4.1
Format settings, CABAC         : Yes
Format settings, ReFrames      : 4 frames
Codec ID                       : 27
Duration                       : 2h 9mn
Bit rate mode                  : Variable
Bit rate                       : 16.4 Mbps
Maximum bit rate               : 35.0 Mbps
Width                          : 1 920 pixels
Height                         : 1 080 pixels
Display aspect ratio           : 16:9
Frame rate                     : 23.976 fps
Standard                       : NTSC
Color space                    : YUV
Chroma subsampling             : 4:2:0
Bit depth                      : 8 bits
Scan type                      : Progressive
Bits/(Pixel*Frame)             : 0.330
Stream size                    : 14.8 GiB (86%)
Color primaries                : BT.709
Transfer characteristics       : BT.709
Matrix coefficients            : BT.709
Color range                    : Limited

Audio #1
ID                             : 4352 (0x1100)
Menu ID                        : 1 (0x1)
Format                         : PCM
Format settings, Endianness    : Big
Format settings, Sign          : Signed
Muxing mode                    : Blu-ray
Codec ID                       : 128
Duration                       : 2h 9mn
Bit rate mode                  : Constant
Bit rate                       : 1 536 Kbps
Channel(s)                     : 2 channels
Channel positions              : Front: L R
Sampling rate                  : 48.0 KHz
Bit depth                      : 16 bits
Stream size                    : 1.39 GiB (8%)
Language                       : English

Audio #2
ID                             : 4353 (0x1101)
Menu ID                        : 1 (0x1)
Format                         : AC-3
Format/Info                    : Audio Coding 3
Mode extension                 : CM (complete main)
Format settings, Endianness    : Big
Codec ID                       : 129
Duration                       : 2h 9mn
Bit rate mode                  : Constant
Bit rate                       : 448 Kbps
Channel(s)                     : 6 channels
Channel positions              : Front: L C R, Side: L R, LFE
Sampling rate                  : 48.0 KHz
Bit depth                      : 16 bits
Compression mode               : Lossy
Stream size                    : 415 MiB (2%)
Language                       : English

Text
ID                             : 4608 (0x1200)
Menu ID                        : 1 (0x1)
Format                         : PGS
Codec ID                       : 144
Delay relative to video        : 1s 1ms
Language                       : Chinese

3.jpg
2.jpg
4.jpg


百度网盘链接:https://pan.baidu.com/s/1Dz5z42mCGHQIja_qOZX8gQ

下载地址:

游客,如果您要查看本帖隐藏内容请回复

楼主热帖
回复

使用道具 举报

0

主题

251

帖子

526

积分

高级会员

Rank: 4

积分
526
发表于 2019-10-29 18:52:38 | 显示全部楼层
多谢楼主分享,楼主辛苦了
回复

使用道具 举报

0

主题

1

帖子

3

积分

新手上路

Rank: 1

积分
3
发表于 2019-12-30 22:09:45 | 显示全部楼层
谢谢楼主分享
回复

使用道具 举报

0

主题

9

帖子

10

积分

新手上路

Rank: 1

积分
10
发表于 2019-12-31 14:18:58 | 显示全部楼层
谢谢分享
回复

使用道具 举报

1

主题

700

帖子

1606

积分

金牌会员

Rank: 6Rank: 6

积分
1606
发表于 2020-1-11 01:42:03 | 显示全部楼层
谢谢分享!!!
回复

使用道具 举报

0

主题

21

帖子

289

积分

中级会员

Rank: 3Rank: 3

积分
289
发表于 2020-1-13 19:29:29 | 显示全部楼层
泰勒,感谢楼主
回复

使用道具 举报

0

主题

8

帖子

14

积分

新手上路

Rank: 1

积分
14
发表于 2020-3-24 23:08:07 | 显示全部楼层
welcome to newyork
回复

使用道具 举报

0

主题

9

帖子

12

积分

新手上路

Rank: 1

积分
12
发表于 2020-4-29 14:52:07 | 显示全部楼层

资源很好!
回复

使用道具 举报

0

主题

327

帖子

340

积分

中级会员

Rank: 3Rank: 3

积分
340
发表于 2020-5-8 01:07:33 | 显示全部楼层
感谢分享 支持楼主分享
回复

使用道具 举报

0

主题

29

帖子

4893

积分

论坛元老

Rank: 8Rank: 8

积分
4893
发表于 2020-5-17 15:15:58 | 显示全部楼层
好看,谢谢楼主分享
回复

使用道具 举报

您需要登录后才可以回帖 登录 | 立即注册

本版积分规则

Archiver|手机版|小黑屋|90云盘 |网站地图

GMT+8, 2021-12-8 08:55 , Processed in 1.177994 second(s), 23 queries .

Powered by 90云盘网 X3.4

© 2001-2013 百度云资源|百度云下载|百度网盘资源|百度云分享|百度云论坛

快速回复 返回顶部 返回列表